Login

  

Justice League web-dl 2017 5.1.





Thread creado por alucardyos el 13/02/2018 01:48:06 am. Lecturas: 26. Mensajes: 2. Favoritos: 0





13/02/2018 01:48:06 am 
       4                           
Justice.League.2017.1080p.WEB-DL.DD5.1.H264-FGT


Despus del sacrificio realizado por Superman (Henry Cavill), la perspectiva de Bruce Wayne (Ben Affleck), nombre tras el que se oculta la ideantidad secreta de Batman, cambia radicalmente. Impulsado por una restaurada fe en la humanidad, e inspirado por el acto desinteresado del Hombre de Acero, Wayne reevala sus mtodos extremos y decide reclutar a nuevos aliados con habilidades extraordinarias. Su objetivo es crear La Liga de la Justicia: un equipo de superhroes que luchen contra el crimen y que defiendan la Tierra de todos los tipos de amenaza.

Video
ID : 1
Format : AVC
Format/Info : Advanced Video Codec
Format profile : [email protected]
Format settings : CABAC / 4 Ref Frames
Format settings, CABAC : Yes
Format settings, ReFrames : 4 frames
Codec ID : V_MPEG4/ISO/AVC
Duration : 2 h 0 min
Bit rate : 5 137 kb/s
Width : 1 920 pixels
Height : 1 080 pixels
Display aspect ratio : 16:9
Frame rate mode : Constant
Frame rate : 23.976 (24000/1001) FPS
Color space : YUV
Chroma subsampling : 4:2:0
Bit depth : 8 bits
Scan type : Progressive
Bits/(PixelFrame) : 0.103
Stream size : 4.31 GiB (93%)
Title : Justice.League.2017.1080p.WEB-DL.DD5.1.H264-FGT
Language : English
Default : Yes
Forced : No
Color range : Limited
Color primaries : BT.709
Transfer characteristics : BT.709
Matrix coefficients : BT.709

Audio
ID : 2
Format : AC-3
Format/Info : Audio Coding 3
Codec ID : A_AC3
Duration : 2 h 0 min
Bit rate mode : Constant
Bit rate : 384 kb/s
Channel(s) : 6 channels
Channel positions : Front: L C R, Side: L R, LFE
Sampling rate : 48.0 kHz
Frame rate : 31.250 FPS (1536 SPF)
Bit depth : 16 bits
Compression mode : Lossy
Stream size : 330 MiB (7%)
Title : Justice.League.2017.1080p.WEB-DL.DD5.1.H264-FGT
Language : English
Service kind : Complete Main
Default : No
Forced : No






otras versiones


Justice.League.2017.WEB-DL.x264-FGT 1.14 GB
Justice.League.2017.WEB-DL.XviD.MP3-FGT 1.51 GB
Justice.League.2017.WEB-DL.XviD.AC3-FGT 1.67 GB
Justice.League.2017.720p.WEB-DL.XviD.AC3-FGT 3.51 GB

44 4



13/02/2018 01:34:30 pm 
       2                           



rate

1